#TITLE:CULTVOICE;
#SUBTITLE:Expi3ze;
#ARTIST:CULTVOICE;
#TITLETRANSLIT:;
#SUBTITLETRANSLIT:;
#ARTISTTRANSLIT:;
#CREDIT:;
#BANNER:bn.png;
#BACKGROUND:bg.png;
#LYRICSPATH:;
#CDTITLE:cdtitle.png;
#MUSIC:21.mp3;
#OFFSET:-0.120;
#SAMPLESTART:100.000;
#SAMPLELENGTH:12.000;
#SELECTABLE:YES;
#BPMS:0.000=170.008,1.000=169.997,3.000=170.008,4.000=169.997,6.000=170.008,7.000=169.997,10.000=170.008,11.000=169.997,13.000=170.008,14.000=169.997,17.000=170.008,18.000=169.997,20.000=170.008,21.000=169.997,23.000=170.008,24.000=169.997,27.000=170.008,28.000=169.997,30.000=170.008,31.000=169.997,34.000=170.008,35.000=169.997,37.000=170.008,38.000=169.997,40.000=170.008,41.000=169.997,44.000=170.008,45.000=169.997,47.000=170.008,48.000=169.997,51.000=170.008,52.000=169.997,54.000=170.008,55.000=169.997,57.000=170.008,58.000=169.997,61.000=170.008,62.000=169.997,64.000=170.008,65.000=169.997,68.000=170.008,69.000=169.997,71.000=170.008,72.000=169.997,75.000=170.008,76.000=169.997,78.000=170.008,79.000=169.997,81.000=170.008,82.000=169.997,85.000=170.008,86.000=169.997,88.000=170.008,89.000=169.997,92.000=170.008,93.000=169.997,95.000=170.008,96.000=169.997,98.000=170.008,99.000=169.997,102.000=170.008,103.000=169.997,105.000=170.008,106.000=169.997,109.000=170.008,110.000=169.997,112.000=170.008,113.000=169.997,115.000=170.008,116.000=169.997,119.000=170.008,120.000=169.997,122.000=170.008,123.000=169.997,126.000=170.008,127.000=169.997,129.000=170.008,130.000=169.997,132.000=170.008,133.000=169.997,136.000=170.008,137.000=169.997,140.000=170.008,141.000=169.997,143.000=170.008,144.000=169.997,146.000=170.008,147.000=169.997,150.000=170.008,151.000=169.997,153.000=170.008,154.000=169.997,157.000=170.008,158.000=169.997,160.000=170.008,161.000=169.997,163.000=170.008,164.000=169.997,167.000=170.008,168.000=169.997,170.000=170.008,171.000=169.997,174.000=170.008,175.000=169.997,177.000=170.008,178.000=169.997,180.000=170.008,181.000=169.997,184.000=170.008,185.000=169.997,187.000=170.008,188.000=169.997,191.000=170.008,192.000=169.997,194.000=170.008,195.000=169.997,197.000=170.008,198.000=169.997,201.000=85.004,201.333=340.015,202.000=170.008,203.000=169.997,205.000=170.008,206.000=169.997,209.000=170.008,210.000=169.997,212.000=170.008,213.000=169.997,216.000=170.008,217.000=169.997,219.000=170.008,220.000=169.997,222.000=170.008,223.000=169.997,226.000=170.008,227.000=169.997,229.000=170.008,230.000=169.997,233.000=170.008,234.000=169.997,236.000=170.008,237.000=169.997,239.000=170.008,240.000=169.997,243.000=170.008,244.000=169.997,246.000=170.008,247.000=169.997,250.000=170.008,251.000=169.997,253.000=170.008,254.000=169.997,257.000=170.008,258.000=169.997,260.000=170.008,261.000=169.997,263.000=170.008,264.000=169.997,266.000=85.001,267.000=84.998,268.000=170.008,269.000=169.997,272.000=85.001,273.000=84.998,274.000=170.008,275.000=169.997,278.000=170.008,279.000=169.997,281.000=170.008,282.000=169.997,285.000=170.008,286.000=169.997,288.000=170.008,289.000=169.997,291.000=170.008,292.000=169.997,295.000=170.008,296.000=169.997,298.000=170.008,299.000=169.997,302.000=170.008,303.000=169.997,305.000=170.008,306.000=169.997,309.000=170.008,310.000=169.997,312.000=170.008,313.000=169.997,315.000=170.008,316.000=169.997,319.000=170.008,320.000=169.997,322.000=170.008,323.000=169.997,326.000=170.008,327.000=169.997,329.000=170.008,330.000=169.997,332.000=170.008,333.000=169.997,336.000=170.008,337.000=169.997;
#STOPS:;
#BGCHANGES:;
// cache tags:
#FIRSTBEAT:2.000;
#LASTBEAT:330.000;
#SONGFILENAME:Songs/Expi3nze 4th Collection/CULTVOICE/21.sm;
#HASMUSIC:1;
#HASBANNER:1;
#MUSICLENGTH:121.315;
// end cache tags

//---------------dance-single - ----------------
#NOTES:
     dance-single:
     :
     Hard:
     15:
     0.834,1.000,1.000,0.923,0.181,384.000,134.000,112.000,0.000,176.000:
0000
0000
2000
0000
,
0020
0000
0230
0000
,
0302
0000
0200
0000
3323
0000
0000
1000
,
1000
0000
0001
0000
1000
0000
0100
0000
1000
0000
0001
0000
1000
0000
0001
0001
,
0001
0100
2030
0000
,
0000
0200
0002
0320
,
0203
0000
0030
0000
3302
0000
0000
0100
,
1000
0100
1000
0100
1000
0100
1000
0100
1000
0100
1000
0100
0010
0000
0000
0000
0000
0000
0000
0000
0000
0000
0000
0000
,
0020
0000
0000
0000
1033
1000
0010
0100
,
0001
0010
0010
0000
,
0200
0000
0302
0000
2003
0000
0000
0111
,
0111
0000
0000
0000
0000
0000
0101
0000
0000
0000
0000
0000
0111
0000
0000
0000
0000
0000
0001
0000
0000
0001
0000
3000
,
0211
0000
0021
0000
0332
0000
0000
1110
,
1110
0000
1010
0000
0203
0000
0000
1011
,
1312
0000
1010
0000
2013
0000
0000
0111
,
0111
0000
0101
0000
0111
0000
0000
0010
,
0111
0000
0101
0000
3111
0000
1000
0111
,
0111
0000
0111
0000
0010
0010
1000
0010
,
1020
0000
2030
0000
3200
0000
0000
1011
,
1011
0000
1001
0000
1011
0000
0000
1011
,
1312
0000
2103
0000
3102
0000
0000
1110
,
1110
0000
1010
0000
2013
0000
0000
0110
,
3112
0000
0110
0000
2003
0000
0000
0111
,
0111
0000
0101
0000
3121
0000
0000
1101
,
1101
1101
0132
0100
,
0010
1000
0203
0000
,
0000
0000
0000
0000
0000
0000
0000
0000
0310
0000
0000
0000
0010
0000
0000
0001
,
0100
0000
0100
0101
,
0101
0000
0000
0000
0000
0000
0000
0000
0100
0000
0000
0000
0100
0000
0000
1000
,
0010
0000
0000
0000
0010
0000
0000
0000
1000
0000
0000
0000
0000
0000
0010
0100
,
1000
0000
0000
0000
0000
0000
0000
0000
0010
0000
0000
0000
0010
0000
0000
0100
,
0010
1000
0001
1100
,
1100
0000
0000
0000
0000
0000
0000
0000
0010
0000
0000
0000
0010
0000
0000
0001
,
0010
0000
0010
0101
,
0101
0000
0000
0000
0000
0000
0000
0000
2000
0000
0000
0000
0010
0000
0200
0001
,
0010
0300
0200
0000
3321
0000
1130
0000
,
1102
0000
0000
0000
0000
0000
0000
0000
2000
0000
0000
0000
3100
0000
0000
0010
,
2103
0000
0000
0000
3020
0000
0000
0000
2031
0000
0000
0000
0000
0000
0001
0001
,
3002
0000
0000
0000
0000
0000
0000
0000
0000
0000
0003
0000
2000
0000
0000
0000
0000
0000
0000
0000
0000
0000
0000
0000
3120
0000
0000
0000
0000
0000
0000
0000
0000
0000
0000
0000
0100
0000
0000
0000
0000
0000
0000
0000
0000
1000
0000
0000
,
0132
1000
1000
1010
,
1213
0000
0000
0000
2000
0000
0000
0000
3320
0000
0000
0000
0100
0000
0000
1000
,
0100
0000
0000
0000
2000
0000
0000
0000
3132
0000
0000
0000
2003
0000
0010
0100
,
3001
0000
0000
0000
2000
0000
0000
0000
3222
0000
0000
1000
1003
0000
0000
1000
,
1002
0000
0000
0000
1003
0000
0000
0000
1000
0000
0000
0000
1000
0000
1000
1000
,
1002
0000
0000
0000
0003
0000
0000
0000
2000
0000
0000
0000
3001
0000
0000
0001
,
2001
0000
0000
0000
3000
0000
0000
0000
2000
0000
0000
0000
3001
0000
0001
0001
,
0001
0000
0000
0000
0001
0000
0000
0000
2002
0000
0000
0000
3003
0000
1000
1000
,
2002
0000
0000
0000
3003
0000
1000
0000
2002
0000
0000
0000
3003
0000
0000
1000
,
1000
0000
0000
0000
1000
0000
0000
0000
2000
0000
0000
0001
0001
0000
0000
0000
,
3002
0000
1000
0000
2000
0000
0033
0300
,
3010
0000
0010
0000
0111
0000
1000
0111
,
0111
1000
0111
1000
0111
1000
0010
1101
,
1101
0010
0111
1000
0111
1000
0010
1101
,
1101
1000
0111
1000
0111
1000
0001
1110
,
1110
0001
1110
0010
2000
0000
0010
0111
,
3211
0000
0010
0000
0302
0000
0100
1110
,
1123
0000
0100
0000
2130
0000
0010
0211
,
3021
0300
2030
0000
3211
0000
0011
0000
,
0311
1000
0111
1000
0111
1000
0010
0111
,
0111
0010
1101
0010
0111
0010
1000
0111
,
0111
1000
0111
1000
0111
1000
0001
1110
,
1110
0001
1110
0001
1110
0001
1000
0111
,
0111
0000
0000
1000
0000
0000
0111
0000
0000
0000
0000
0000
2010
0000
0000
0000
0000
0000
0000
0000
0000
0111
0000
3000
,
0211
0000
0010
0000
0320
0000
0000
1101
,
1132
0000
0100
0000
2003
0000
0001
0211
,
3021
0300
2130
0000
3211
0000
0011
0000
,
0310
0000
0000
0000
1010
0000
0000
0000
1010
0001
0010
0100
1000
0100
0010
0001
,
1010
0000
1000
0010
,
1010
0001
0010
0100
1000
0100
0010
0001
1010
0000
0000
0000
0000
0000
0000
0000
,
1010
0000
2000
0000
,
0020
0000
3200
0000
,
2030
0000
0000
0000
0000
0000
0000
0000
3312
0100
0010
0100
2010
0000
0000
0000
,
0100
0010
0100
0010
0100
0000
0000
0000
0013
0100
0010
0100
0010
0000
0000
0000
,
0100
0000
0100
0001
0010
0100
0000
0000
3012
0000
0000
0000
0000
0000
0000
0000
,
1000
1000
2003
0000
,
3200
0000
0000
0000
0302
0000
0000
0020
,
0233
0002
2313
0000
,
0020
0230
3302
0000
,
2000
0000
3023
0000
,
2000
0030
3022
0000
,
0000
0000
0233
0000
,
0000
0000
0000
0000
,
0000
0000
0300
0000
,
0000
0000
0000
0000
,
0000
0000
0000
0000
,
0000
0000
0000
0000
;
